Roy Orbison - Mystery Girl

EAC-CUE-FLAC-LOG-COVER-TAU | Lossless | MP3-320 kbps CBR |247 Mb
Time total: 00:38:16 | 1989 [1992] | Genre : Rock
Рой Келтон Орбисон (23 апреля 1936, Вернон — 6 декабря 1988, Нашвилл) — американский певец и автор песен, пионер рок-н-ролла.
Mystery Girl на wikipedia
Audio CD (June 29, 1992)
Original Release Date: February 1, 1989
Number of Discs: 1
Label: Virgin Records Us
ASIN: B000000WGN

----------------------<cut>----------------------

Tracklist:
01. (00:03:31) Roy Orbison — You Got It
02. (00:03:41) Roy Orbison — In The Real World
03. (00:03:43) Roy Orbison — (All I Can Do Is) Dream You
04. (00:03:32) Roy Orbison — A Love So Beautiful
05. (00:03:57) Roy Orbison — California Blue
06. (00:04:17) Roy Orbison — She's A Mystery To Me
07. (00:03:24) Roy Orbison — The Comedians
08. (00:03:58) Roy Orbison — The Only One
09. (00:04:01) Roy Orbison — Windsurfer
10. (00:04:12) Roy Orbison — Careless Heart

Roy Orbison - Mystery Girl

[b]EAC extraction logfile[/b]
Exact Audio Copy V0.99 prebeta 4 from 23. January 2008

EAC extraction logfile from 7. May 2009, 23:27

Roy Orbison / Mystery Girl

Used drive  : BENQ    DVD DD DW1640   Adapter: 1  ID: 1

Read mode               : Secure
Utilize accurate stream : Yes
Defeat audio cache      : Yes
Make use of C2 pointers : No

Read offset correction                      : 618
Overread into Lead-In and Lead-Out          : No
Fill up missing offset samples with silence : Yes
Delete leading and trailing silent blocks   : No
Null samples used in CRC calculations       : Yes
Used interface                              : Native Win32 interface for Win NT & 2000

Used output format              : User Defined Encoder
Selected bitrate                : 1024 kBit/s
Quality                         : High
Add ID3 tag                     : Yes
Command line compressor         : C:\Program Files\Exact Audio Copy\Flac\flac.exe
Additional command line options : -V -8 -T "artist=%a" -T "title=%t" -T "album=%g" -T "date=%y" -T "tracknumber=%n" -T 

"genre=%m" %s


TOC of the extracted CD

     Track |   Start  |  Length  | Start sector | End sector 
    ---------------------------------------------------------
        1  |  0:00.12 |  3:31.33 |        12    |    15869   
        2  |  3:31.45 |  3:44.10 |     15870    |    32679   
        3  |  7:15.55 |  3:39.62 |     32680    |    49166   
        4  | 10:55.42 |  3:33.30 |     49167    |    65171   
        5  | 14:28.72 |  3:57.43 |     65172    |    82989   
        6  | 18:26.40 |  4:16.52 |     82990    |   102241   
        7  | 22:43.17 |  3:26.05 |    102242    |   117696   
        8  | 26:09.22 |  3:55.00 |    117697    |   135321   
        9  | 30:04.22 |  4:02.03 |    135322    |   153474   
       10  | 34:06.25 |  4:09.17 |    153475    |   172166   


Range status and errors

Selected range

     Filename H:\Music Lossless\Roy Orbison - Mystery Girl\Roy Orbison - Mystery Girl.wav

     Peak level 100.0 %
     Range quality 99.9 %
     Test CRC 96654E86
     Copy CRC 96654E86
     Copy OK

No errors occurred

End of status report

Необходимо зарегистрироваться чтобы прочитать текст или скачать файлы