Девушка из «Голого глаза» / The Girl from the Naked Eye [2012, боевик, триллер, мелодрама, BDRip]

Страна: США
Жанр: боевик, триллер, мелодрама
Год выпуска: 2012
Продолжительность: 01:23:41
Перевод: Одноголосый (закадровый)
Cубтитры: нет
Оригинальная аудиодорожка: английский
Режиссер: Дэвид Рен

В ролях: Джейсон Йи, Саманта Стритс, Гари Стретч, Доминик Суэйн, Рон Йуан, Уилсон Жермен Эредия, Джерри Йинг, Джеймс Лью, Пит Антико

Описание: Девушка Сенди работает по вызову, обслуживая клуб "Голый глаз", у неё есть водитель Джейк, который отвечает за неё головой. Когда Джейк находит её мёртвой в своей квартире, то решает начать своё собственное расследование смерти Сенди и начинает охоту на её убийц.

----------------------<cut>----------------------

Качество видео: BDRip-AVC
Формат видео: MKV

Видео: AVC, High@L4.1, 2.35:1, 5965 Кбит/сек, 1280x544, 23,976 кадра/сек
Аудио: AC-3, 48,0 КГц, 448 Кбит/сек, 6 каналов, Front: L C R, Side: L R, LFE, Russian
Аудио 2: DTS, 48,0 КГц, 1510 Кбит/сек, 6 каналов, Front: L C R, Side: L R, LFE, English
Перевод: Одноголосый

Полное имя : The.Girl.from.the.Naked.Eye.2012.720p.mkv
Формат : Matroska
Версия формата : Version 2
Размер файла : 4,63 Гбайт
Продолжительность : 1 ч. 23 м.
Режим общего битрейта : Переменный
Общий поток : 7925 Кбит/сек
Дата кодирования : UTC 2012-01-28 15:47:11
Программа кодирования : mkvmerge v5.0.1 ('Es ist Sommer') built on Nov 6 2011 16:23:40
Библиотека кодирования : libebml v1.2.2 + libmatroska v1.3.0

Видео
Идентификатор : 1
Формат : AVC
Формат/Информация : Advanced Video Codec
Профиль формата : High@L4.1
Параметр CABAC формата : Да
Параметр ReFrames формата : 8 кадров
Идентификатор кодека : V_MPEG4/ISO/AVC
Продолжительность : 1 ч. 23 м.
Вид битрейта : Переменный
Битрейт : 5965 Кбит/сек
Максимальный битрейт : 25,0 Мбит/сек
Ширина : 1280 пикселей
Высота : 544 пикселя
Соотношение сторон : 2,35:1
Частота кадров : 23,976 кадра/сек
Цветовое пространство : YUV
Субдискретизация насыщенности : 4:2:0
Битовая глубина : 8 бит
Тип развёртки : Прогрессивная
Бит/(Пиксели*Кадры) : 0.357
Размер потока : 3,40 Гбайт (73%)
Библиотека кодирования : x264 core 112 r1867 22bfd31
Default : Да
Forced : Нет

Аудио #1
Идентификатор : 2
Формат : AC-3
Формат/Информация : Audio Coding 3
Расширение режима : CM (complete main)
Идентификатор кодека : A_AC3
Продолжительность : 1 ч. 23 м.
Вид битрейта : Постоянный
Битрейт : 448 Кбит/сек
Каналы : 6 каналов
Расположение каналов : Front: L C R, Side: L R, LFE
Частота : 48,0 КГц
Битовая глубина : 16 бит
Метод сжатия : С потерями
Размер потока : 268 Мбайт (6%)
Язык : Russian
Default : Да
Forced : Нет

Аудио #2
Идентификатор : 3
Формат : DTS
Формат/Информация : Digital Theater Systems
Идентификатор кодека : A_DTS
Продолжительность : 1 ч. 23 м.
Вид битрейта : Постоянный
Битрейт : 1510 Кбит/сек
Каналы : 6 каналов
Расположение каналов : Front: L C R, Side: L R, LFE
Частота : 48,0 КГц
Битовая глубина : 16 бит
Метод сжатия : С потерями
Размер потока : 904 Мбайт (19%)
Язык : English
Default : Нет
Forced : Нет

Девушка из «Голого глаза» / The Girl from the Naked Eye [2012, боевик, триллер, мелодрама, BDRip]

Девушка из «Голого глаза» / The Girl from the Naked Eye [2012, боевик, триллер, мелодрама, BDRip]

Девушка из «Голого глаза» / The Girl from the Naked Eye [2012, боевик, триллер, мелодрама, BDRip]

Девушка из «Голого глаза» / The Girl from the Naked Eye [2012, боевик, триллер, мелодрама, BDRip]

Скачать:

Необходимо зарегистрироваться чтобы прочитать текст или скачать файлы