Создание интерьера в 3D MAX с использованием визуализатора VRay (2012)

Данный курс демонстрирует создание интерьера в 3D MAX 8 с использованием визуализатора VRay 1.50 от начала и до конца. Замер помещения, создание чертежа в АВТОКАДЕ 2004, импорт его в 3D MAX 8, придание объема станам, создание проемов для окон и дверей, моделирование окон и дверей, моделирование кандельеров и других элементов интерьера, создание материалов и их применение, создание источников света, настройка визуализатора. Рассматривается весь спектр этапов при создании дизайна интерьера современного помещения. Для тех кто не знает АВТОКАД 2004 дается несколько подробных уроков по основным инструментам при создании.

----------------------<cut>----------------------

Создание интерьера в 3D MAX с использованием визуализатора VRay (2012)

чертежа помещения Программа курса:
Часть 1 — Введение, Организационные вопросы, Замеры помещения и начало создания чертежа в AutoCad.
Часть 2 — Перепланировка помещения, окончание создания и распечатка чертежа в AutoCad.
Часть 3 — Основы глобального освещения. Введение в V-Ray.
Часть 4 — Импорт чертежа в 3D Max, создание 3х-мерного помещения.
Часть 5 — Материалы V-Ray часть 1.
Часть 6 — Материалы V-Ray часть 2.
Часть 7 — Материалы V-Ray часть 3.
Часть 8 — Материалы V-Ray часть 4.
Часть 9 — Материалы V-Ray часть 5.
Часть 10 — Источники света часть 1.
Часть 11 — Источники света часть 2.
Часть 12 — Настройки V-Ray.
Часть 13 — Интерьер. Начальные настройки. Материалы. Свет.
Часть 14 — Интерьер. Плинтус, Двери.
Часть 15 — Интерьер. Двери, Окна, Шторы.
Часть 16 — Интерьер. Шторы, Материалы для штор.
Часть 17 — Интерьер. Поверхностные свойства предметов. Потолочные конструктивы.
Часть 18 — Интерьер. Материалы и свет для потолочных конструктивов.
Часть 19 — Интерьер. Люстры и материалы к ним.
Часть 20 — Интерьер. Кресла и диваны, оформление стен.
Часть 21 — Интерьер. Карнизы. V-Ray dirt, V-Ray fur.
Часть 22 — Интерьер. Декоративная панель. Normal Bump в изготовлении карнизов.
Часть 23 — Интерьер. Normal Bump в изготовлении карнизов часть 2.
Часть 24 — Интерьер. Элементы интерьера. Финальный просчет.

Создание интерьера в 3D MAX с использованием визуализатора VRay (2012)

MediaInfo:

Общее:
Полное имя : D:\Загрузки\Creating interior in 3d MAX\Автокад начальный курс\Autokad path 1.avi
Формат : AVI
Формат/Информация : Audio Video Interleave
Размер файла : 90,6 Мбайт
Продолжительность : 15 м.
Общий поток : 828 Кбит/сек

Создание интерьера в 3D MAX с использованием визуализатора VRay (2012)

Видео:
Идентификатор : 0
Формат : MPEG-4 Visual
Идентификатор кодека : DIV3
Идентификатор кодека/Подсказка : DivX 3 Low
Продолжительность : 15 м.
Битрейт : 425 Кбит/сек
Ширина : 1024 пикселя
Высота : 768 пикселей
Соотношение сторон : 4:3
Частота кадров : 15,000 кадров/сек
Цветовое пространство : YUV
Субдискретизация насыщенности : 4:2:0
Битовая глубина : 8 бит
Метод сжатия : С потерями
Бит/(Пиксели*Кадры) : 0.036
Размер потока : 46,5 Мбайт (51%)

Аудио:
Идентификатор : 1
Формат : PCM
Параметр Endianness формата : Little
Параметр Sign формата : Signed
Идентификатор кодека : 1
Продолжительность : 15 м.
Вид битрейта : Постоянный
Битрейт : 352,8 Кбит/сек
Каналы : 1 канал
Частота : 22,05 КГц
Битовая глубина : 16 бит
Размер потока : 38,6 Мбайт (43%)
Выравнивание : Соединение по промежуткам
Продолжительность промежутка : 67 мс. (1,00 видеокадр)

Создание интерьера в 3D MAX с использованием визуализатора VRay (2012)

Общее:
Полное имя : D:\Загрузки\Creating interior in 3d MAX\3DMAX\часть 1.avi
Формат : AVI
Формат/Информация : Audio Video Interleave
Размер файла : 126 Мбайт
Продолжительность : 21 м.
Общий поток : 821 Кбит/сек
Программа кодирования : Lavf52.39.0

Создание интерьера в 3D MAX с использованием визуализатора VRay (2012)

Видео:
Идентификатор : 0
Формат : MPEG-4 Visual
Идентификатор кодека : DIV3
Идентификатор кодека/Подсказка : DivX 3 Low
Продолжительность : 21 м.
Битрейт : 462 Кбит/сек
Ширина : 1280 пикселей
Высота : 800 пикселей
Соотношение сторон : 16:10
Частота кадров : 15,000 кадров/сек
Цветовое пространство : YUV
Субдискретизация насыщенности : 4:2:0
Битовая глубина : 8 бит
Метод сжатия : С потерями
Бит/(Пиксели*Кадры) : 0.030
Размер потока : 70,9 Мбайт (56%)

Создание интерьера в 3D MAX с использованием визуализатора VRay (2012)

Аудио:
Идентификатор : 1
Формат : PCM
Параметр Endianness формата : Little
Параметр Sign формата : Signed
Идентификатор кодека : 1
Продолжительность : 21 м.
Вид битрейта : Постоянный
Битрейт : 352,8 Кбит/сек
Каналы : 1 канал
Частота : 22,05 КГц
Битовая глубина : 16 бит
Размер потока : 54,1 Мбайт (43%)
Выравнивание : Соединение по промежуткам
Продолжительность промежутка : 67 мс. (1,00 видеокадр)

Автор режиссер: Игорь Поддубняк
Название: Создание интерьера в 3D MAX с использованием визуализатора VRay
Год выпуска: 2012
Жанр: Трёхмерная графика, анимация
Продолжительность: 12:04:03
Качество видео: PCRec
Видеокодек: MPEG-4 Visual
Битрейт видео: ~425 kb/s, 462 kb/s, 15,000 FPS
Размер кадра: 1024x768, 1280x800
Аудиокодек: PCM
Битрейт аудио: 352,8 kb/s (CBR), 1 Ch, 22,05 Hz

Разработчик: Игорь Поддубняк
Год выпуска: 2012
Размер файла: 4,31 GB


Необходимо зарегистрироваться чтобы прочитать текст или скачать файлы


>>>Все необходимые программы списком. Ежедневное обновление<<<

Подключайтесь к доку!